Good to Know Database

Informationen zu Audio- und Video-Dateien mit MediaInfo auslesen


MediaInfo ist ein Programm für Linux und Windows, mit welchem man die Metadaten von Video- und Audiodateien auslesen kann. Unter Ubuntu können Sie die Kommandozeilen-basierte Version von MediaInfo wie folgt installieren. Zuvor sollten Sie jedoch die lokale Paketdatenbank aktualisieren.

georg@ubuntu1204:~$ sudo apt-get update

Anschließend installieren Sie MediaInfo wie folgt.

georg@ubuntu1204:~$ sudo apt-get install mediainfo

Um an die Informationen einer Video- oder Audiodatei zu gelangen, übergeben Sie die jeweilige Datei einfach als Argument an MediaInfo.

georg@ubuntu1204:~$ mediainfo big_buck_bunny_1080p_surround.avi
General
Complete name                            : big_buck_bunny_1080p_surround.avi
Format                                   : AVI
Format/Info                              : Audio Video Interleave
Format profile                           : OpenDML
Format settings                          : rec
File size                                : 886 MiB
Duration                                 : 9mn 56s
Overall bit rate                         : 12.5 Mbps
Writing application                      : AVI-Mux GUI 1.17.7, Aug  8 2006  20:59:17

Video
ID                                       : 0
Format                                   : MPEG-4 Visual
Format profile                           : Simple@L1
Format settings, BVOP                    : No
Format settings, QPel                    : No
Format settings, GMC                     : No warppoints
Format settings, Matrix                  : Default (H.263)
Codec ID                                 : FMP4
Duration                                 : 9mn 56s
Bit rate                                 : 12.0 Mbps
Width                                    : 1 920 pixels
Height                                   : 1 080 pixels
Display aspect ratio                     : 16:9
Frame rate                               : 24.000 fps
Color space                              : YUV
Chroma subsampling                       : 4:2:0
Bit depth                                : 8 bits
Scan type                                : Progressive
Compression mode                         : Lossy
Bits/(Pixel*Frame)                       : 0.241
Stream size                              : 853 MiB (96%)
Writing library                          : Lavc51.44.0

Audio
ID                                       : 1
Format                                   : AC-3
Format/Info                              : Audio Coding 3
Mode extension                           : CM (complete main)
Codec ID                                 : 2000
Duration                                 : 9mn 56s
Bit rate mode                            : Constant
Bit rate                                 : 448 Kbps
Channel(s)                               : 6 channels
Channel positions                        : Front: L C R, Side: L R, LFE
Sampling rate                            : 48.0 KHz
Bit depth                                : 16 bits
Compression mode                         : Lossy
Stream size                              : 31.9 MiB (4%)
Alignment                                : Aligned on interleaves
Interleave, duration                     : 64 ms (1.54 video frames)
Interleave, preload duration             : 192 ms


Dieser Eintrag wurde am 14.07.2013 erstellt.

Direkter Link zu dieser Seite: http://www.gtkdb.de/index_7_2262.html

[ Zur Startseite ]   [ Zur Kategorie ]


Valid XHTML 1.0 Transitional Valid CSS Valid Atom 1.0

© 2004-2018 by Georg Kainzbauer